#TITLE:It's my life;
#SUBTITLE:;
#ARTIST:Bon Jovi;
#TITLETRANSLIT:;
#SUBTITLETRANSLIT:;
#ARTISTTRANSLIT:;
#CREDIT:;
#BANNER:It's my life-logo.jpg;
#BACKGROUND:It's my life.jpg;
#LYRICSPATH:;
#CDTITLE:DD.png;
#MUSIC:It's my life.mp3;
#OFFSET:-0.020;
#SAMPLESTART:100.000;
#SAMPLELENGTH:12.000;
#SELECTABLE:YES;
#BPMS:0.000=120.610;
#STOPS:;
#BGCHANGES:;
// cache tags:
#FIRSTBEAT:4.000;
#LASTBEAT:319.500;
#SONGFILENAME:Songs/lan sky/It's my life/It's my life.sm;
#HASMUSIC:1;
#HASBANNER:1;
#MUSICLENGTH:158.057;
// end cache tags

//---------------dance-single - Hener----------------
#NOTES:
     dance-single:
     Hener:
     Hard:
     9:
     0.929,0.960,1.000,0.202,0.019,610.000,339.000,32.000,0.000,152.000:

0000
0000
0000
0000
,
1101
0000
0111
0000
0010
0001
1000
0100
,
1002
0010
0100
1000
0010
0100
1000
0100
,
1123
0000
1101
0100
0001
1000
0100
0001
,
1230
0000
0001
0000
0010
0000
1000
0000
0001
0010
0001
0010
0001
0010
1000
0010
,
1311
0100
0010
0001
,
1000
0000
0100
0000
1000
0010
1000
0000
,
0111
0010
1110
0001
0100
0010
1001
0100
,
0010
0001
0110
0010
1000
0100
0101
1000
,
0111
0010
1001
0010
0100
0001
0110
1000
,
0010
0100
0011
0010
1000
0100
1001
1000
,
1011
0100
0111
1000
0100
0010
1101
0010
,
0001
0100
0011
1000
0001
0010
1001
0100
,
1011
0010
0101
1000
0010
0100
1001
1000
,
0010
0100
1001
0010
1000
0010
0101
0010
,
1001
0100
1100
0010
0100
0010
0011
1000
,
0100
0010
0101
0010
1000
0100
0011
0100
,
1011
0111
1000
0010
,
1111
0010
0110
0001
0110
1000
0101
0001
,
1010
1000
0011
0100
0011
0010
1100
0100
,
0011
0100
1001
0010
0110
1000
0011
0100
,
1001
0010
1100
0010
0110
0001
1010
0010
,
1211
0000
0010
0000
1010
0000
0001
0000
0011
0000
1000
0000
1001
0000
0010
0300
,
1021
0000
0100
0000
1100
0000
0001
0000
0101
0000
0001
0000
1100
0000
0100
0030
,
2101
0000
0010
0000
0110
0000
0010
0000
0011
0000
0001
0000
0110
0000
0010
3000
,
0101
0010
1100
0100
1010
0100
0011
0100
,
1121
0000
0001
0000
0101
0000
0100
0000
1100
0000
0100
0000
1001
0000
0001
0030
,
1210
0000
1000
0000
0011
0000
0010
0000
1010
0000
0010
0000
1001
0000
0010
0300
,
0011
0100
1010
0100
0011
0100
1010
0100
,
1001
0100
0110
1000
1010
0100
0101
0010
,
2101
0000
0010
0000
0110
0000
0010
0000
0101
0000
0010
0000
0011
0000
0010
3000
,
0112
0000
1000
0000
1100
0000
1000
0000
0110
0000
0010
0000
1100
0000
0010
0003
,
1210
0000
0010
0000
1001
0000
0010
0000
0011
0000
0010
0000
1010
0000
1000
0300
,
0011
0100
1010
0100
0101
0010
1100
0010
,
1011
0100
0011
1000
0100
0001
0110
1000
,
0100
0010
0011
0100
0010
1000
1100
0010
,
0001
0100
0011
1000
0100
0010
1100
0010
,
0001
0010
1001
0010
0100
0001
0110
0100
,
1000
0100
0101
0010
2100
0010
0101
0010
,
0100
0000
3000
0010
0000
0001
0000
0000
1020
0000
0100
0000
1001
0000
0100
0030
,
1000
0100
1022
0100
1000
0100
0100
1000
,
0100
0000
1000
0000
0100
0000
1000
0033
1100
0000
0010
0000
0101
0000
0100
0000
,
1011
0010
0100
0001
0010
1000
0100
0001
,
0010
0100
1000
0001
0100
0010
1000
0100
,
0010
0001
0010
1000
2102
0010
0100
0010
,
0100
0000
0100
0000
0010
0000
0010
0000
0100
0000
0010
0000
0110
3003
0010
0000
,
1101
0111
0010
0100
,
1111
1010
0101
0011
1100
0110
0011
0101
,
1010
0110
0101
1010
1001
0101
0110
1001
,
0110
1001
0110
1001
1010
0110
0101
1010
,
0101
0011
1100
0110
0101
0011
1010
0101
,
1001
0110
0011
0110
1010
0110
0101
0011
,
1010
0110
0101
1010
1100
0011
0101
0110
,
1001
1010
0101
0011
0110
1001
1010
0110
,
0011
0001
0101
0010
1010
0100
0101
0010
,
1201
0000
1000
0000
0011
0000
1000
0000
1001
0000
0010
0000
1000
0000
0010
0300
,
1021
0000
0100
0000
0101
0000
0001
0000
1100
0000
0100
0000
1001
0000
0100
0030
,
1100
0100
0011
0010
0101
0010
1010
0100
,
0011
0100
1010
0100
0101
0010
1010
0100
,
1021
0000
0100
0000
0101
0000
0100
0000
1100
0000
0100
0000
1001
0000
0100
0030
,
2101
0000
0010
0000
0110
0000
0010
0000
0011
0000
0001
0000
0110
0000
0010
3000
,
0012
0000
0100
0000
1010
0000
0100
0000
1100
0000
0100
0000
0110
0000
0100
0003
,
1000
0100
0011
0100
1010
0100
0101
0010
,
1101
0110
0011
0110
1001
0110
1100
0110
,
0011
0110
1001
0110
0101
1010
0101
1100
,
0101
0011
0110
1010
0101
1010
0101
0011
,
1100
0011
1010
0101
0110
1100
0110
1100
,
2011
0000
0110
0000
0101
0000
0011
0000
0110
0000
0011
0000
0101
0000
0011
3000
,
0121
0000
1100
0000
0101
0000
1001
0000
0101
0000
1100
0000
1001
0000
0101
0030
,
2101
0000
0011
0000
0101
0000
0011
0000
0101
0000
0011
0000
0110
0000
0011
3000
,
0011
0110
1100
0110
0101
1100
0011
0110
,
1021
0000
0101
0000
1001
0000
1100
0000
0101
0000
1001
0000
1100
0000
0101
0030
,
1201
0000
0011
0000
1010
0000
0011
0000
1001
0000
0011
0000
1010
0000
1001
0300
,
0011
0110
1001
0110
1100
0011
1010
0101
,
0011
1100
0101
1010
1001
0110
1010
0101
,
1012
0000
0110
0000
1100
0000
1010
0000
0110
0000
1010
0000
1100
0000
1010
0003
,
1210
0000
0011
0000
1001
0000
1010
0000
1001
0000
0011
0000
1001
0000
1010
0300
,
0011
0101
1010
0101
0110
1001
0101
1010
,
0110
0011
1010
0101
1010
0110
0101
1010
,
0222
0000
0000
0000
0000
0000
0000
0333
;
